#TITLE:Cross*Heart;
#SUBTITLE:- Kyoshiro to Towa no Sora Opening;
#ARTIST:CooRie;
#TITLETRANSLIT:;
#SUBTITLETRANSLIT:;
#ARTISTTRANSLIT:;
#CREDIT:Jubo;
#BANNER:Kyoshiro to Towa no Sora OP-BN.avi;
#BACKGROUND:Kyoshiro to Towa no Sora OP-BG1.jpg;
#LYRICSPATH:Kyoshiro to Towa no Sora OP.lrc;
#CDTITLE:Jubo.png;
#MUSIC:Kyoshiro to Towa no Sora OP.mp3;
#OFFSET:1.056;
#SAMPLESTART:31.073;
#SAMPLELENGTH:28.200;
#SELECTABLE:YES;
#BPMS:0.000=142.000;
#STOPS:;
#BGCHANGES:2.500=Kyoshiro to Towa no Sora OP.avi=1.000=1=0=0,
215.250=Kyoshiro to Towa no Sora OP-BG2.jpg=1.000=0=0=0,
99999=-nosongbg-=1.000=0=0=0 // don't automatically add -songbackground-
;
// cache tags:
#FIRSTBEAT:2.500;
#LASTBEAT:214.021;
#SONGFILENAME:songs/Otaku's Dream 3rd Anime Mix/[Jubo] Cross-Heart - Kyoshiro to Towa no Sora OP/Kyoshiro to Towa no Sora OP.sm;
#HASMUSIC:1;
#HASBANNER:1;
#MUSICLENGTH:89.547;
// end cache tags

//---------------dance-single - ----------------
#NOTES:
     dance-single:
     :
     Hard:
     7:
     0.526,0.478,0.302,0.547,0.084,254.000,27.000,49.000,0.000,0.000:
0000
0000
0000
0000
,
1001
0000
1000
0001
0000
1000
0000
0010
,
0000
0100
0000
0001
0000
1000
0001
0000
,
1000
0100
0010
0001
0000
0100
0001
1000
,
1001
2002
0000
0000
3003
0000
0020
0000
,
0130
0000
0000
0100
0010
0000
0010
0100
,
0000
0110
0000
1001
0000
0000
0000
1000
,
0001
0000
0001
1000
0000
1001
0000
0101
,
0000
0000
0001
1000
0001
1000
0000
0000
0001
1000
0001
1000
0000
0000
0000
0000
,
1001
0000
0000
0001
1000
0000
1000
0001
,
0000
1001
0000
1010
0000
1000
0001
0100
,
0000
0000
0202
0000
0000
0000
0000
0303
0000
0000
0000
0000
0000
0000
1001
0000
,
0000
0220
0000
0000
0330
0000
0110
0000
,
2002
0000
0000
0000
0000
3003
0000
0000
1000
0000
0000
0000
0001
0000
0100
0000
,
0000
0000
0010
0000
0000
0000
0200
0000
0000
0000
0000
0300
0000
0000
0010
0000
,
1000
0000
0001
0100
0000
0010
0000
1000
,
0000
0000
0100
0000
0200
0000
0000
0000
0000
0000
0000
0300
0000
0000
1000
0000
,
1000
0000
0001
0002
0000
0003
0000
0100
,
0100
0000
0010
0020
0000
1030
0000
1000
,
1000
0000
0000
0100
0000
0000
0010
0000
0001
0000
0000
0010
0000
0000
0100
0000
,
1000
0000
0000
0100
0000
0000
0010
0000
0001
0000
0000
0010
0000
0000
0100
0000
,
2000
0000
0000
0000
0000
3000
0010
0000
2000
0000
0000
0000
0000
0000
3020
0000
,
0000
1030
0100
0010
0001
0010
0100
1000
,
0001
0000
1000
0020
0000
0130
0020
0000
,
0000
0000
0100
0000
0100
0030
0100
0000
0000
0000
0100
0000
0010
0000
1000
0000
,
0002
0000
0103
0100
0002
0000
0103
0100
,
0002
2003
3002
0203
,
0320
0000
0000
0000
0000
0030
2000
0000
0000
0000
0000
0000
3002
0000
0000
0000
,
0000
0003
1000
0000
0010
0000
0001
0000
0010
0000
1000
0000
0010
0000
0001
0000
,
0010
0100
1000
2002
0000
0000
3003
1000
,
0100
0010
0001
2002
0000
0000
3003
1000
,
1000
0000
0001
0001
0000
0100
0010
0200
,
0000
0000
0000
0000
0000
0000
0000
0000
0001
0000
0000
0000
0000
0000
0000
0000
0000
0000
0000
0000
0000
0000
0000
0000
0002
0303
0000
0000
0000
0000
0000
0000
,
0001
0000
1000
0000
0010
1000
0001
0100
,
0000
0101
0000
2200
0000
0000
3300
0100
,
1000
0000
0001
0010
0000
0001
0100
0001
,
1000
0000
0000
0000
0100
0000
0010
0000
0000
0000
0001
1000
0001
1000
0001
1000
,
0002
0000
0000
0000
0000
0003
1001
0000
0000
0000
0100
0000
0010
0000
0200
0000
,
0000
0000
0000
0300
0000
0000
0110
0000
0000
0000
0010
0000
1000
0000
0001
0000
,
0200
0000
0000
0000
0000
0300
0000
0000
0001
0000
0100
0000
0010
0000
2000
0000
,
0000
3000
0001
0000
0010
0000
1000
0000
0000
0000
1000
0000
0010
0000
0001
0000
,
0010
0000
0010
0001
0100
0010
1000
0100
,
0000
1100
0000
0101
0000
0001
0100
0100
,
0001
0010
0100
1000
0010
0100
0001
0010
,
0001
0000
0000
0000
0100
0000
0010
0000
0000
0000
1000
0001
1000
0001
1000
0001
,
2000
0000
3000
1001
0000
0010
0100
0020
,
0000
0000
0000
0030
0000
0000
0110
0000
0000
0000
1000
0000
0001
0000
2000
0000
,
0000
0000
3000
0002
0000
0103
0010
2000
,
0000
0000
0000
3000
0001
0000
0200
0000
0000
0000
0320
0000
0000
0000
2030
0000
,
0000
3001
1000
0001
0100
0010
1000
0100
,
1000
0000
0010
0100
0000
0001
0000
0100
,
0000
0000
0110
0000
0000
2002
0000
0000
0000
0000
0000
0000
0000
0000
0000
0000
,
0000
0000
0000
0000
,
0000
0000
3003
0000
;

//---------------dance-single - Steps by Jubo----------------
#NOTES:
     dance-single:
     Steps by Jubo:
     Challenge:
     10:
     1.000,1.000,1.000,1.000,0.218,428.000,166.000,93.000,0.000,0.000:
0000
0000
0000
0000
0000
0000
0000
0000
0000
0000
1000
0001
1000
0001
1000
0001
,
1100
0100
0101
0001
0011
0010
1010
1000
,
1100
0100
0110
0010
0011
0001
1001
1000
,
0011
0000
0110
0000
1100
0000
1010
0000
0010
0000
0100
0000
1001
0000
0101
1000
,
0011
0000
2002
3000
0010
0100
1000
0100
0013
0100
1000
0100
0020
0000
0000
0000
,
0200
0330
0000
0000
0010
0000
0000
0000
1100
0000
0000
0000
0100
0000
0000
0000
0010
0000
0000
0000
0001
0000
0000
0000
1010
0000
0000
0000
0100
0000
0000
0000
,
0010
0110
1100
1001
0011
0010
1010
1000
,
0011
0100
1001
1000
0001
1001
0011
0101
,
1100
0000
0011
1100
0011
1100
0011
0000
0011
1100
0011
1100
0011
0000
0100
0000
,
1001
0010
0101
0001
1000
0100
1010
0001
,
0100
1001
1100
1010
0001
1000
0011
0110
,
1100
0000
0000
0000
0102
0000
0000
0000
0020
0030
0000
0000
1000
0000
0003
0000
0001
0000
0000
0000
0100
0000
0000
0000
1010
0000
0000
0000
1001
0000
0000
0000
,
0011
0000
0000
0000
2010
0000
0000
0000
0002
0003
0000
0000
0100
0000
0000
0000
3010
0000
0000
0000
1000
0000
0000
0000
0220
0000
0000
0000
0330
0000
0000
0000
,
2002
0000
0000
3003
0110
0000
0001
0000
1000
0000
0100
0000
0011
0000
0100
0000
,
1100
0000
0010
0000
0101
0000
0200
0000
0010
0000
0001
0300
1100
0000
0010
0000
,
0011
0001
1010
0100
0010
1000
0011
0010
,
1010
0000
0100
0000
0210
0000
0001
0000
1000
0000
0010
0300
0011
0000
0001
0000
,
0102
0000
0000
0000
1000
0000
0000
0000
2000
3000
0000
0000
2003
0000
0000
0000
0010
0000
0000
0000
3100
0000
0000
0000
0110
0000
0000
0000
0010
0000
0000
0000
,
2010
0000
0000
0000
0001
0000
0000
0000
0002
0003
0000
0000
3002
0000
0000
0000
0100
0000
0000
0000
0013
0000
0000
0000
0110
0000
0000
0000
0010
0000
0000
0000
,
1100
0000
0001
1100
0001
0000
1010
0000
0011
0000
1000
0011
1000
0000
0101
0000
,
1100
0000
0001
1100
0001
0000
0110
0000
0101
0000
1000
0011
1000
0010
0100
0010
,
2100
0000
0000
0000
0010
0000
0000
0000
0002
0003
3000
0000
0011
0000
0000
0000
2100
0000
0000
0000
0010
0000
0000
0000
0002
0003
3000
0000
0012
0000
0000
0000
,
0200
0300
0003
0000
1000
0000
0000
0000
1100
0000
0000
0000
0010
0000
0000
0000
0011
0000
0000
0000
0010
0000
0000
0000
1100
0000
0000
0000
1000
0000
0000
0000
,
1001
0001
0101
0120
0001
0130
1020
0001
,
1000
0000
0200
0300
2000
3030
0200
0300
0110
0000
0020
0030
0002
0003
2000
3000
,
0012
0000
0000
0000
1000
0000
0000
0000
0203
0300
0000
0000
0110
0000
0000
0000
0012
0000
0000
0000
1000
0000
0000
0000
0203
0300
0000
0000
0110
0000
0000
0000
,
0002
1000
2003
0001
3002
0100
0203
0010
,
0320
0000
0000
0000
1000
0000
0000
0000
0002
0003
0030
0000
2000
0000
0000
0000
0010
0000
0000
0000
0100
0000
3000
0000
0012
0000
0000
0000
1000
0000
0000
0000
,
0200
0300
0003
0000
1010
0000
0000
0000
0110
0000
0000
0000
0101
0000
0000
0000
0110
0000
0000
0000
1010
0000
0000
0000
0110
0000
0000
0000
0101
0000
0000
0000
,
0110
0000
1100
0000
1001
0000
2002
0000
3003
0000
1000
0000
1100
0000
2000
3000
,
0200
0300
0020
0030
0002
0003
2002
0000
3003
0000
0001
0000
1001
0000
1000
0000
,
1100
0000
0100
0000
0101
0000
0001
0000
0011
0000
0010
0000
0110
0000
0220
0330
,
1000
0000
0100
0000
0010
0000
0001
0000
0010
0000
0100
0000
1000
0000
0010
0000
0100
0000
0001
0000
0010
0000
0100
0000
2002
3003
0000
0000
0000
0000
0000
0000
,
0011
0010
1010
1000
1100
0100
0101
1100
,
0110
0000
0000
0011
0000
0000
1100
0000
0011
0000
0000
1100
0000
0000
0110
0000
,
1100
0100
0011
0010
1000
0001
0101
0001
,
1001
0000
0010
0000
1100
0000
0011
0000
1000
0000
0001
1000
0001
1000
0001
1000
,
0002
0000
0000
0000
0010
0000
0000
0000
2000
3000
0003
0000
1001
0000
0000
0000
0001
0000
0000
0000
0100
0000
0000
0000
0110
0000
0000
0000
0210
0000
0000
0000
,
0010
0000
1000
0300
1100
0000
0110
0000
0001
0000
0010
0000
1100
0000
0001
0000
,
0201
0000
0000
0000
0001
1300
0001
0000
0001
0000
0100
0000
0010
0000
2000
0000
,
0010
3000
0001
0000
0010
0000
2000
0000
3000
0000
1000
0000
0010
0100
0001
0100
,
0011
0010
0011
0001
0110
0010
1100
0100
,
1001
1100
0110
0202
0303
0001
0100
0010
,
1100
0010
0100
1000
0010
0100
0001
0010
,
0102
0000
0003
0000
1001
0000
0220
0000
0330
0000
1000
0001
1000
0001
1000
0001
,
2000
0000
0000
0000
0010
0000
0000
0000
3002
0003
0000
0000
1001
0000
0000
0000
0100
0000
0000
0000
0010
0000
0000
0000
0110
0000
0000
0000
0120
0000
0000
0000
,
0200
0000
0000
0330
0000
0000
0110
0000
0010
0000
1000
0000
0011
0000
2001
0000
,
0001
0100
3010
0002
0000
0103
0010
2000
,
0100
0000
0010
3000
0001
0000
0200
0000
0010
0000
0320
0000
1000
0000
2030
0000
,
0001
0000
3002
0003
2000
3000
0002
0003
0200
0300
0020
0030
2000
3000
0200
0300
,
2000
3000
0001
0000
1100
0000
0100
0000
1100
0000
0001
0000
1100
0000
0010
0000
,
1100
0000
0000
0000
0000
0000
0220
0000
0000
0330
0000
0000
0000
0000
0000
2002
0000
0000
0000
0000
0000
0000
0000
0000
0000
0000
0000
0000
0000
0000
3000
0000
0000
0000
0000
0000
1000
0000
0100
0000
0010
0000
0000
0000
0000
0000
0000
0000
,
0100
2000
0000
0000
0000
0000
0000
0000
0000
0000
0000
0000
0000
0000
0000
0000
0000
0000
0000
0000
0000
0000
0000
0000
,
0000
0000
3003
0000
;

//---------------dance-single - ----------------
#NOTES:
     dance-single:
     :
     Medium:
     5:
     0.386,0.448,0.313,0.302,0.006,187.000,28.000,27.000,0.000,0.000:
0000
0000
0000
0000
,
1000
0100
0010
0001
,
0010
0100
1000
0001
,
1000
0001
1000
0001
0000
0100
0010
0100
,
0010
0100
0000
0000
0010
0000
0110
0000
,
0110
0000
0010
1000
,
0001
0100
0010
1000
,
0010
0100
0001
0100
,
0010
0000
2000
0000
3000
0002
0000
0003
,
1001
1000
0010
0100
,
0001
1000
0100
1000
,
1100
0000
0101
0000
0000
0000
0000
0110
,
0000
0110
0000
0000
0000
0000
1010
0000
,
0011
0000
0010
0001
,
0100
0010
1000
0100
,
0010
0001
0010
0100
,
1000
0010
0100
0001
,
0202
0000
0000
0303
,
2020
0000
0000
3030
,
1000
0000
0000
0100
1000
0000
0000
0010
,
0100
0000
0000
0001
0010
0000
0000
0001
,
2000
0000
0000
3001
0200
0000
0000
0301
,
2000
0000
0010
3000
0010
0000
0010
0000
,
0020
0000
0000
2030
0000
0000
3002
0000
,
0000
0103
0010
0100
0000
0010
0100
0010
,
2000
0000
0000
3001
0020
0000
0000
0031
,
2000
0000
0001
3000
0001
0000
0001
0000
,
1001
0000
0000
1100
0000
0000
0101
0000
,
0000
0001
0010
0100
1000
0010
0100
0001
,
0020
0000
0000
0032
0000
0000
1003
0000
,
0200
0000
0000
2300
0000
0000
3001
0000
,
0011
0110
1100
1001
,
0110
0000
0000
0000
0000
0000
0000
0000
0000
0000
0000
0000
2002
3003
0000
0000
,
0001
0010
0100
1000
,
0010
0100
0001
0001
,
1000
1000
0010
0010
,
0100
0010
0200
0000
,
0301
0001
0100
0010
,
1000
1000
0001
0100
,
1000
0200
0301
0010
,
1000
0010
0001
0100
,
0010
1000
0010
0100
,
0010
0100
0010
0100
,
0001
1000
0001
1000
,
1001
0001
0001
0001
,
0101
0000
0001
0100
,
2000
3000
1000
0100
,
0002
0003
0100
0010
,
0100
0010
1000
0010
,
0120
0000
0000
1030
,
1010
1010
1010
1010
,
1010
0000
0000
1000
,
0000
0020
0000
0000
0000
0000
0000
0000
0000
0000
0000
0000
0000
0000
0000
0000
,
0000
0000
0030
0000
;

//---------------dance-single - ----------------
#NOTES:
     dance-single:
     :
     Easy:
     2:
     0.180,0.209,0.067,0.201,0.000,89.000,6.000,18.000,0.000,0.000:
0000
0000
0000
0000
,
1000
0000
0010
0000
,
0100
0000
0001
0000
,
1000
0000
0001
0000
,
2000
0000
0000
0000
,
3001
0000
0010
0000
,
0100
0000
0010
0000
,
1000
0000
0001
0000
,
1000
0000
0000
0000
,
1001
0000
0010
0000
,
1000
0000
0001
0000
,
0100
0000
0000
0000
0000
0000
0000
0110
,
0000
0000
0000
1001
,
1001
0000
0000
1000
,
0000
0010
0000
0100
,
0000
0001
0000
1000
,
0000
0010
0000
0000
,
2200
0000
0000
3300
,
0022
0000
0000
0000
0000
0000
0000
0033
,
0001
0000
0010
0000
,
0100
0000
1000
0000
,
2000
0000
0000
0000
0002
0000
0000
3003
,
0000
0001
0000
0100
,
0000
0010
0000
1000
,
0000
0010
0000
0100
,
0002
0000
0000
0000
2000
0000
0000
3003
,
0000
0001
0000
1000
,
1000
0000
0000
0001
0000
0000
1000
0000
,
0000
0000
0000
0000
,
0010
0000
0000
0010
0000
0000
0000
0000
,
0100
0000
0000
0100
0000
0000
0000
0000
,
0002
0000
0000
2003
0000
0000
0000
3020
,
0000
0000
0000
0030
,
1000
0000
0001
0000
,
0100
0000
0010
0000
,
1000
0000
0010
0000
,
0100
0000
0001
0000
,
1000
0000
0010
0000
,
0100
0000
0001
0000
,
1000
0000
0010
0000
,
0100
0000
0001
0000
,
1000
0000
0100
0000
,
0010
0000
0001
0000
,
0100
0000
0010
0000
,
1000
0000
0001
0000
,
2000
0000
0000
0000
,
3020
0000
0000
0000
,
0230
0000
0000
0000
,
0302
0000
0000
0000
,
2003
0000
0000
0000
,
3001
0000
0001
0000
,
0001
0000
0000
0000
,
0200
0000
0000
0000
,
0000
0000
0000
0000
0000
0000
0000
0000
0000
0000
0000
0000
0000
0000
0000
0000
0000
0000
0000
0000
0000
0000
0000
0000
0000
0000
0000
0000
0000
0000
0000
0000
0000
0000
0000
0000
0000
0000
0000
0000
0000
0000
0000
0000
0000
0000
0000
0000
0000
0000
0000
0000
0000
0000
0000
0000
0000
0000
0000
0000
0000
0000
0000
0000
0000
0000
0000
0000
0000
0000
0000
0000
0000
0000
0000
0000
0000
0000
0000
0000
0000
0000
0000
0000
0000
0000
0000
0000
0000
0000
0000
0000
0000
0000
0000
0000
0000
0300
0000
0000
0000
0000
0000
0000
0000
0000
0000
0000
0000
0000
0000
0000
0000
0000
0000
0000
0000
0000
0000
0000
0000
0000
0000
0000
0000
0000
0000
0000
0000
0000
0000
0000
0000
0000
0000
0000
0000
0000
0000
0000
0000
0000
0000
0000
0000
0000
0000
0000
0000
0000
0000
0000
0000
0000
0000
0000
0000
0000
0000
0000
0000
0000
0000
0000
0000
0000
0000
0000
0000
0000
0000
0000
0000
0000
0000
0000
0000
0000
0000
0000
0000
0000
0000
0000
0000
0000
0000
0000
0000
0000
0000
0000
;
